logo

Лидия красноружева актриса из голые и смешные. Передача дтв голые и смешные, скачать бесплатно и без регистрации

Лидия красноружева актриса из голые и смешные Rating: 9,8/10 727 reviews

Голые и смешные. Лидия Красноружева (2006

лидия красноружева актриса из голые и смешные

И дело даже не в том, что уровень сексуальных ощущений для обоих партнеров возрастает многократно, а в том, что с помощью осознанных сокращений интимных мышц женщина во время занятий любовью способна наполнять мужчину особой энергией, которая делает его более чувственным, нежным, страстным. И только посредством поцелуя , по мнению Платона, соединение происходит вновь. Подборка Cамых, Cамых Актрис Ольга Павленко. Размер потока : 1,19 Мбайт 7% Выравнивание : Разделение по промежуткам Продолжительность промежутка : 40 мс. Размер потока : 1,75 Мбайт 8% Выравнивание : Разделение по промежуткам Продолжительность промежутка : 40 мс.

Next

Голый Театр

лидия красноружева актриса из голые и смешные

Красиво, смешно и неожиданно шутят герои клипов «Голые и смешные». Презинтация крема для боди арт. Такая женщина всегда будет любимой и желанной для своего мужчины. Особенно в том, что касается секса. В проекте вы увидите, как раскованные красавицы-актрисы и актеры разыгрывают ни о чем не подозревающих случайных прохожих, посетителей клубов, покупателей в супермаркетах, пляжников, да кого угодно! Его теория выглядела следующим образом. Размер потока : 1,44 Мбайт 6% Выравнивание : Разделение по промежуткам Продолжительность промежутка : 40 мс.

Next

Голый Театр

лидия красноружева актриса из голые и смешные

Размер потока : 2,08 Мбайт 10% Выравнивание : Разделение по промежуткам Продолжительность промежутка : 40 мс. Современное общество с трудом побороло предрассудки по поводу религиозных, расовых и идеологических различий. Размер потока : 2,21 Мбайт 6% Выравнивание : Разделение по промежуткам Продолжительность промежутка : 40 мс. За внимание телезрителей будут бороться розыгрыши эротического характера! Размер потока : 3,11 Мбайт 11% Выравнивание : Разделение по промежуткам Продолжительность промежутка : 40 мс. Что вы знаете о самом необходимом предмете во время безопасного секса? Первые документальные съёмки были произведены ещё при зарождении кинематографа. Мы уверены, что вы, однажды посетив наш портал, обязательно вернётесь к нам вновь.

Next

ГОЛЫЕ+И+СМЕШНЫЕ торрент скачать

лидия красноружева актриса из голые и смешные

Copyright ©2019 Infringement complaints: torrentsearchwebabuse gmail. До этого французские журналисты и критики называли так фильмы, сделанные на материалах съёмок путешествий. Грирсон же определил документальное кино как «творческую разработку действительности». А также вас ждет много новинок документального жанра, качестве, куча и еще много много всего интересного. Размер потока : 1,88 Мбайт 7% Выравнивание : Разделение по промежуткам Продолжительность промежутка : 40 мс.

Next

Лидия красноружева актриса фото — cloudifysource.org

лидия красноружева актриса из голые и смешные

Мастера этого вида кинотворчества нередко поднимались до серьёзных философских обобщений в своих произведениях. Документальным называется фильм, в основу которого легли съёмки подлинных событий и лиц. Размер потока : 1,74 Мбайт 8% Выравнивание : Разделение по промежуткам Продолжительность промежутка : 40 мс. Скачивайте торренты без ограничений и без всяких регистраций на трекерах. Размер потока : 2,39 Мбайт 6% Выравнивание : Разделение по промежуткам Продолжительность промежутка : 40 мс. Рождение ребенка — один из лучших в жизни подарков. Раньше человек напоминал по форме шар.


Next

Голый Театр

лидия красноружева актриса из голые и смешные

У него было четыре руки, четыре ноги и две головы, одновременно мужская и женская. В любом случае разлука была наказанием. Полово́е созрева́ние также пуберта́тный период или пуберта́т — процесс изменений в организме подростка, вследствие которых он становится взрослым и способным к продолжению рода. Подборка Cамых, Cамых Актрис Маргарита Хубеджева. В ответ на эти сигналы половые железы вырабатывают различные гормоны, стимулирующие рост и развитие мозга, костей, мышц, кожи и репродуктивных органов. Размер потока : 1,75 Мбайт 9% Выравнивание : Разделение по промежуткам Продолжительность промежутка : 40 мс. Страна: Украина Жанр: Erotic, Hidden Camera Язык: Русский Режиссер: Виктор Явник, Александр Тарасуль Актриса: Юлия К.

Next

Эротика и Секс Документальные фильмы онлайн

лидия красноружева актриса из голые и смешные

Приятно осознавать, что в будущем вас ожидает нечто такое, чего вы еще никогда не испытывали. Жара во время паспортного контроля. Размер потока : 2,21 Мбайт 8% Выравнивание : Разделение по промежуткам Продолжительность промежутка : 40 мс. При этом производится поиск видео онлайн бесплатно. Искусство управления интимными мышцами - тайна великих обольстительниц мира.

Next

ГОЛЫЕ+И+СМЕШНЫЕ торрент скачать

лидия красноружева актриса из голые и смешные

В течение периода полового созревания формируются значительные различия в размерах, форме, составе и функции многих структур и систем организма, наиболее очевидные из которых относят ко вторичным половым признакам. Размер потока : 2,41 Мбайт 6% Выравнивание : Разделение по промежуткам Продолжительность промежутка : 40 мс. До начала полового созревания различия в строении тела девочки и мальчика сводятся практически только к половым органам. Размер потока : 2,47 Мбайт 6% Выравнивание : Разделение по промежуткам Продолжительность промежутка : 40 мс. Please pay attention that we are not responsible for the authenticity and legality of the torrent. Размер потока : 2,27 Мбайт 6% Выравнивание : Разделение по промежуткам Продолжительность промежутка : 40 мс. Документальные фильмы онлайн смотреть - Документальное кино или неигровое кино — вид кинематографа.

Next

Голые и Смешные. Мужчина! Откройте шампанское!

лидия красноружева актриса из голые и смешные

Иногда ответить на этот вопрос не так просто. Привлекательность такой женщины поистине огромна. Раздел также доступен для всех желающих. Темой для документальных фильмов чаще всего становятся интересные события, культурные явления, научные факты и гипотезы, а также знаменитые персоны и сообщества. Половое созревание запускается с помощью сигналов из головного мозга к половым железам: яичкам у мальчиков и яичникам у девочек. Рост тела ускоряется в первой половине пубертатного периода, а полностью заканчивается с завершением полового созревания. If you find any torrent of child pornography please let us know via.

Next